[NSBC] Zettai Reido 4 E06 [WEBDL] [1080p] [V2]

Category:
Date:
2020-02-12 23:54 UTC
Submitter:
Seeders:
2
Information:
TlNCQy50bw==
Leechers:
5
File size:
884.4 MiB
Completed:
354
Info hash:
126ff4ac3d2ee0976a2ace1fba5511c9ad9c7e8e
> ### Subtitle: English & Indonesian > ### Also available on [Subscene](https://subscene.com/subtitles/absolute-zero-4-zettai-reido-mizen-hanzai-sennyu-sousa) > ### From Viu Indonesia ![](http://img.topddl.net/images/2020/01/12/zettaireido2018.jpg "") ![](http://img.topddl.net/images/2020/02/13/Zettai.Reido.S04E06v2.1080p.WEB-DL.AAC.x264-NSBC.mkv.jpg "") ``` General Unique ID : 234717523073891521729798452262426253556 (0xB094F35B92A6FF072C34D704326A18F4) Complete name : Zettai.Reido.S04E06v2.1080p.WEB-DL.AAC.x264-NSBC.mkv Format : Matroska Format version : Version 4 File size : 884 MiB Duration : 46 min 2 s Overall bit rate : 2 686 kb/s Movie name : Zettai.Reido.S04E06v2.1080p.WEB-DL.AAC.x264-NSBC Encoded by : NoNe | NSBC Encoded date : UTC 2020-02-12 23:49:38 Writing application : mkvmerge v29.0.0 ('Like It Or Not') 64-bit Writing library : libebml v1.3.6 + libmatroska v1.4.9 Copyright : NSBC Comment : NoNe | NSBC DATE_RECORDED : 2020 NOTICE ME : SENPAI WEBSITE : NSBC.to Video ID : 1 Format : AVC Format/Info : Advanced Video Codec Format profile : [email protected] Format settings : CABAC / 4 Ref Frames Format settings, CABAC : Yes Format settings, Reference frames : 4 frames Codec ID : V_MPEG4/ISO/AVC Duration : 46 min 1 s Bit rate : 2 624 kb/s Width : 1 920 pixels Height : 1 080 pixels Display aspect ratio : 16:9 Frame rate mode : Constant Frame rate : 24.000 FPS Color space : YUV Chroma subsampling : 4:2:0 Bit depth : 8 bits Scan type : Progressive Bits/(Pixel*Frame) : 0.053 Stream size : 862 MiB (98%) Title : [NSBC] Writing library : x264 core 152 r2851 ba24899 Encoding settings : cabac=1 / ref=4 / deblock=1:0:0 / analyse=0x3:0x113 / me=hex / subme=8 / psy=1 / psy_rd=1.00:0.00 / mixed_ref=1 / me_range=16 / chroma_me=1 / trellis=2 / 8x8dct=1 / cqm=0 / deadzone=21,11 / fast_pskip=1 / chroma_qp_offset=-2 / threads=10 / lookahead_threads=1 / sliced_threads=0 / nr=0 / decimate=1 / interlaced=0 / bluray_compat=0 / constrained_intra=0 / bframes=0 / weightp=2 / keyint=72 / keyint_min=7 / scenecut=40 / intra_refresh=0 / rc_lookahead=50 / rc=cbr / mbtree=1 / bitrate=2624 / ratetol=1.0 / qcomp=0.90 / qpmin=3 / qpmax=51 / qpstep=8 / vbv_maxrate=2624 / vbv_bufsize=10496 / nal_hrd=none / filler=0 / ip_ratio=1.40 / aq=1:1.00 Default : Yes Forced : No Audio ID : 2 Format : AAC LC Format/Info : Advanced Audio Codec Low Complexity Codec ID : A_AAC-2 Duration : 46 min 2 s Bit rate : 64.6 kb/s Channel(s) : 2 channels Channel layout : L R Sampling rate : 44.1 kHz Frame rate : 43.066 FPS (1024 SPF) Compression mode : Lossy Delay relative to video : 46 ms Stream size : 21.3 MiB (2%) Title : [NSBC] Language : Japanese Default : Yes Forced : No Text #1 ID : 3 Format : UTF-8 Codec ID : S_TEXT/UTF8 Codec ID/Info : UTF-8 Plain Text Duration : 45 min 23 s Bit rate : 51 b/s Count of elements : 586 Stream size : 17.0 KiB (0%) Title : [NSBC] Language : English Default : No Forced : No Text #2 ID : 4 Format : UTF-8 Codec ID : S_TEXT/UTF8 Codec ID/Info : UTF-8 Plain Text Duration : 45 min 23 s Bit rate : 51 b/s Count of elements : 586 Stream size : 17.3 KiB (0%) Title : [NSBC] Language : Indonesian Default : Yes Forced : No ```

File list

  • Zettai.Reido.S04E06v2.1080p.WEB-DL.AAC.x264-NSBC.mkv (884.4 MiB)