[Kokkaku] Darwin's Game 1-4 [1080p][HEVC][Dual-Audio]

Category:
Date:
2020-02-13 00:38 UTC
Submitter:
Seeders:
2
Information:
No information.
Leechers:
2
File size:
1.2 GiB
Completed:
82
Info hash:
c6dd57980965c6f1af3c90fecec7bb1cc880001d
Having decided on a name, I merged episodes 1-3 as well. Episode 4 is the same as the one I uploaded under `[Toranpu]`. As with that release,video track is from Judas and audio is from Golumpa. ```Input #0, matroska,webm, from '[Kokkaku] Darwin's Game 1-4 [1080p][HEVC][Dual-Audio]/[Kokkaku] Darwin's Game - 01 [1080p][HEVC][Dual-Audio].mkv': Metadata: encoder : libebml v1.3.9 + libmatroska v1.5.2 creation_time : 2020-02-13T00:30:42.000000Z Duration: 00:47:52.18, start: -0.007000, bitrate: 1319 kb/s Stream #0:0(jpn): Video: hevc (Main 10), yuv420p10le(tv), 1920x1080 [SAR 1:1 DAR 16:9], 23.98 fps, 23.98 tbr, 1k tbn, 23.98 tbc (default) Metadata: title : [Judas] x265 10b BPS-eng : 954009 DURATION-eng : 00:47:52.126000000 NUMBER_OF_FRAMES-eng: 68862 NUMBER_OF_BYTES-eng: 342504575 _STATISTICS_WRITING_APP-eng: mkvmerge v38.0.0 ('The Silent Type') 64-bit _STATISTICS_WRITING_DATE_UTC-eng: 2020-02-13 00:30:42 _STATISTICS_TAGS-eng: BPS DURATION NUMBER_OF_FRAMES NUMBER_OF_BYTES Stream #0:1(jpn): Audio: opus, 48000 Hz, stereo, fltp (default) Metadata: title : [Judas] JAP Stereo (Opus 112Kbps) BPS-eng : 108534 DURATION-eng : 00:47:52.177000000 NUMBER_OF_FRAMES-eng: 143609 NUMBER_OF_BYTES-eng: 38966267 _STATISTICS_WRITING_APP-eng: mkvmerge v38.0.0 ('The Silent Type') 64-bit _STATISTICS_WRITING_DATE_UTC-eng: 2020-02-13 00:30:42 _STATISTICS_TAGS-eng: BPS DURATION NUMBER_OF_FRAMES NUMBER_OF_BYTES Stream #0:2(eng): Subtitle: ass Metadata: title : English BPS-eng : 103 DURATION-eng : 00:46:41.420000000 NUMBER_OF_FRAMES-eng: 621 NUMBER_OF_BYTES-eng: 36225 _STATISTICS_WRITING_APP-eng: mkvmerge v38.0.0 ('The Silent Type') 64-bit _STATISTICS_WRITING_DATE_UTC-eng: 2020-02-13 00:30:42 _STATISTICS_TAGS-eng: BPS DURATION NUMBER_OF_FRAMES NUMBER_OF_BYTES Stream #0:3: Audio: aac (LC), 48000 Hz, stereo, fltp Metadata: BPS-eng : 253375 DURATION-eng : 00:47:52.170000000 NUMBER_OF_FRAMES-eng: 134633 NUMBER_OF_BYTES-eng: 90967031 _STATISTICS_WRITING_APP-eng: mkvmerge v38.0.0 ('The Silent Type') 64-bit _STATISTICS_WRITING_DATE_UTC-eng: 2020-02-13 00:30:42 _STATISTICS_TAGS-eng: BPS DURATION NUMBER_OF_FRAMES NUMBER_OF_BYTES ```

File list

  • [Kokkaku] Darwin's Game 1-4 [1080p][HEVC][Dual-Audio]
    • [Kokkaku] Darwin's Game - 01 [1080p][HEVC][Dual-Audio].mkv (451.7 MiB)
    • [Kokkaku] Darwin's Game - 02 [1080p][HEVC][Dual-Audio].mkv (208.2 MiB)
    • [Kokkaku] Darwin's Game - 03 [1080p][HEVC][Dual-Audio].mkv (375.5 MiB)
    • [Kokkaku] Darwin's Game - 04 [1080p][HEVC][Dual-Audio].mkv (222.2 MiB)