[Kokkaku] Plunderer - 06 [1080p][HEVC][Dual Audio]

Category:
Date:
2020-02-13 00:53 UTC
Submitter:
Seeders:
1
Information:
No information.
Leechers:
0
File size:
343.0 MiB
Completed:
35
Info hash:
29c94c62903dbc1087da5b403f37dedfa8cffc7f
Video from Judas, audio from Golumpa. ```Input #0, matroska,webm, from '[Kokkaku] Plunderer - 06 [1080p][HEVC][Dual Audio].mkv': Metadata: creation_time : 2020-02-13T00:49:07.000000Z ENCODER : Lavf58.29.100 Duration: 00:22:50.10, start: -0.007000, bitrate: 2099 kb/s Stream #0:0: Video: hevc (Main 10), yuv420p10le(tv, bt709), 1920x1080 [SAR 1:1 DAR 16:9], 23.98 fps, 23.98 tbr, 1k tbn, 23.98 tbc (default) Metadata: title : [Judas] x265 10b BPS-eng : 1621647 DURATION-eng : 00:22:50.036000000 NUMBER_OF_FRAMES-eng: 32848 NUMBER_OF_BYTES-eng: 277714493 _STATISTICS_WRITING_APP-eng: mkvmerge v38.0.0 ('The Silent Type') 64-bit _STATISTICS_WRITING_DATE_UTC-eng: 2020-02-13 00:49:07 _STATISTICS_TAGS-eng: BPS DURATION NUMBER_OF_FRAMES NUMBER_OF_BYTES Stream #0:1(jpn): Audio: opus, 48000 Hz, stereo, fltp (default) Metadata: title : [Judas] JAP Stereo (Opus 112Kbps) BPS-eng : 109815 DURATION-eng : 00:22:50.101000000 NUMBER_OF_FRAMES-eng: 68505 NUMBER_OF_BYTES-eng: 18807323 _STATISTICS_WRITING_APP-eng: mkvmerge v38.0.0 ('The Silent Type') 64-bit _STATISTICS_WRITING_DATE_UTC-eng: 2020-02-13 00:49:07 _STATISTICS_TAGS-eng: BPS DURATION NUMBER_OF_FRAMES NUMBER_OF_BYTES Stream #0:2(eng): Audio: opus, 48000 Hz, stereo, fltp Metadata: title : [Judas] ENG Stereo (Opus 112Kbps) ENCODER : opusenc from opus-tools 0.2+3-f5f571b3 AVX1 [Apr 21 2019] ENCODER_OPTIONS : --vbr --comp 10 --framesize 20 --bitrate 112 BPS-eng : 109691 DURATION-eng : 00:22:50.076000000 NUMBER_OF_FRAMES-eng: 68504 NUMBER_OF_BYTES-eng: 18785758 _STATISTICS_WRITING_APP-eng: mkvmerge v38.0.0 ('The Silent Type') 64-bit _STATISTICS_WRITING_DATE_UTC-eng: 2020-02-13 00:49:07 _STATISTICS_TAGS-eng: BPS DURATION NUMBER_OF_FRAMES NUMBER_OF_BYTES Stream #0:3(eng): Subtitle: ass Metadata: title : English BPS-eng : 79 DURATION-eng : 00:20:53.120000000 NUMBER_OF_FRAMES-eng: 246 NUMBER_OF_BYTES-eng: 12440 _STATISTICS_WRITING_APP-eng: mkvmerge v38.0.0 ('The Silent Type') 64-bit _STATISTICS_WRITING_DATE_UTC-eng: 2020-02-13 00:49:07 _STATISTICS_TAGS-eng: BPS DURATION NUMBER_OF_FRAMES NUMBER_OF_BYTES Stream #0:4: Audio: aac (LC), 48000 Hz, stereo, fltp Metadata: BPS-eng : 253375 DURATION-eng : 00:22:50.090000000 NUMBER_OF_FRAMES-eng: 64223 NUMBER_OF_BYTES-eng: 43393341 _STATISTICS_WRITING_APP-eng: mkvmerge v38.0.0 ('The Silent Type') 64-bit _STATISTICS_WRITING_DATE_UTC-eng: 2020-02-13 00:49:07 _STATISTICS_TAGS-eng: BPS DURATION NUMBER_OF_FRAMES NUMBER_OF_BYTES Stream #0:5: Attachment: ttf Metadata: filename : OpenSans-Semibold.ttf mimetype : application/x-truetype-font ```

File list

  • [Kokkaku] Plunderer - 06 [1080p][HEVC][Dual Audio].mkv (343.0 MiB)